Digital Video Forums  

Go Back   Digital Video Forums > Video File Formats > MP4, MKV, MPEG-4 AVC (H.264)

Reply
 
LinkBack Thread Tools Search this Thread Rate Thread Display Modes
Old 5 Mar 2013, 10:58 PM   #1
Junior Member
Junior Member
 
Join Date: Feb 2013
Posts: 2
Default What makes a file failed to convert?

So the story is I would like to convert a mkv file movie to smaller size mkv with vidcoder. The problem is in 1 minute it says succeeded and when I checked it only converted +- 1-3min of the movie, and I tried like 4-5x already and its always the same result.

The thing is this is not the first time, there were some other movies like that also (not many times, but like 3-4 movies).

So i checked the movies and all can play well on my br player or my laptop.

Btw this is the file description from mediainfo
General
Complete name : C:\Users\Pavilion\bloodsport.1988.720p.bluray.x264-filmhd.mkv
Format : Matroska
Format version : Version 2
File size : 4.37 GiB
Duration : 1h 32mn
Overall bit rate : 6 787 Kbps
Writing application : x264.exe
Writing library : mkv2rls v1.3 (date: 2010 aug 28)

Video
ID : 1
Format : AVC
Format/Info : Advanced Video Codec
Format profile : High@L4.1
Format settings, CABAC : Yes
Format settings, ReFrames : 5 frames
Codec ID : V_MPEG4/ISO/AVC
Duration : 1h 32mn
Bit rate : 6 020 Kbps
Width : 1 280 pixels
Height : 720 pixels
Display aspect ratio : 16:9
Frame rate mode : Constant
Frame rate : 23.976 fps
Color space : YUV
Chroma subsampling : 4:2:0
Bit depth : 8 bits
Scan type : Progressive
Bits/(Pixel*Frame) : 0.272
Stream size : 3.79 GiB (87%)
Writing library : x264 core 104 r1713 c276662
Encoding settings : cabac=1 / ref=5 / deblock=1:0:0 / analyse=0x3:0x133 / me=umh / subme=7 / psy=1 / psy_rd=1.00:0.00 / mixed_ref=1 / me_range=16 / chroma_me=1 / trellis=1 / 8x8dct=1 / cqm=0 / deadzone=21,11 / fast_pskip=1 / chroma_qp_offset=-2 / threads=12 / sliced_threads=0 / nr=0 / decimate=0 / interlaced=0 / constrained_intra=0 / bframes=3 / b_pyramid=2 / b_adapt=1 / b_bias=0 / direct=3 / weightb=1 / open_gop=0 / weightp=2 / keyint=240 / keyint_min=24 / scenecut=40 / intra_refresh=0 / rc_lookahead=30 / rc=2pass / mbtree=1 / bitrate=6020 / ratetol=1.0 / qcomp=0.60 / qpmin=10 / qpmax=51 / qpstep=4 / cplxblur=20.0 / qblur=0.5 / ip_ratio=1.40 / aq=1:1.00
Language : English
Default : Yes
Forced : No

Audio
ID : 2
Format : DTS
Format/Info : Digital Theater Systems
Mode : 16
Format settings, Endianness : Big
Codec ID : A_DTS
Duration : 1h 32mn
Bit rate mode : Constant
Bit rate : 768 Kbps
Channel(s) : 2 channels
Channel positions : Front: L R
Sampling rate : 48.0 KHz
Bit depth : 24 bits
Compression mode : Lossy
Stream size : 507 MiB (11%)
Title : English DTS 754kbps
Language : English
Default : Yes
Forced : No

Text #1
ID : 3
Format : UTF-8
Codec ID : S_TEXT/UTF8
Codec ID/Info : UTF-8 Plain Text
Title : English
Language : English
Default : No
Forced : No

Text #2
ID : 4
Format : UTF-8
Codec ID : S_TEXT/UTF8
Codec ID/Info : UTF-8 Plain Text
Title : French
Language : French
Default : No
Forced : No

Text #3
ID : 5
Format : UTF-8
Codec ID : S_TEXT/UTF8
Codec ID/Info : UTF-8 Plain Text
Title : Spanish
Language : Spanish
Default : No
Forced : No

Menu
00:00:00.000 : en:00:00:00.000
00:03:00.639 : en:00:03:00.639
00:04:21.720 : en:00:04:21.720
00:10:35.927 : en:00:10:35.927
00:17:39.100 : en:00:17:39.100
00:20:39.196 : en:00:20:39.196
00:25:02.000 : en:00:25:02.000
00:28:04.433 : en:00:28:04.433
00:31:27.969 : en:00:31:27.969
00:35:44.642 : en:00:35:44.642
00:42:15.825 : en:00:42:15.825
00:44:16.279 : en:00:44:16.279
00:47:58.292 : en:00:47:58.292
00:52:30.522 : en:00:52:30.522
01:00:14.402 : en:01:00:14.402
01:02:42.592 : en:01:02:42.592
01:07:05.730 : en:01:07:05.730
01:09:27.246 : en:01:09:27.246
01:12:52.368 : en:01:12:52.368
01:15:17.638 : en:01:15:17.638
01:21:36.141 : en:01:21:36.141
01:25:21.366 : en:01:25:21.366
01:27:53.935 : en:01:27:53.935[/SIZE]

and the setting i used is normal, all unchange except video filters detelecine default & decomb default (as my laptop cant handle more)

Thanks
rronald_25 is offline   Reply With Quote
Reply

Bookmarks


Currently Active Users Viewing This Thread: 1 (0 members and 1 guests)
 
Thread Tools Search this Thread
Search this Thread:

Advanced Search
Display Modes Rate This Thread
Rate This Thread:

Posting Rules
You may not post new threads
You may not post replies
You may not post attachments
You may not edit your posts

BB code is On
Smilies are On
[IMG] code is On
HTML code is Off
Trackbacks are On
Pingbacks are On
Refbacks are Off


Similar Threads
Thread Thread Starter Forum Replies Last Post
New Super Resilient Software Makes File Sharing Unstoppable admin Latest News 0 13 Feb 2012 06:47 PM
DVD2AVI makes a bad AC3 file waqqas31 Other Software 1 10 Mar 2003 06:58 PM
AVI Dub: chop makes file bigger? Zingaro DivX/XviD Conversion/Encoding 3 24 Apr 2002 09:30 PM



All times are GMT +10. The time now is 02:28 PM.

Kirsch designed by Andrew & Austin


Powered by vBulletin® Version 3.8.7
Copyright ©2000 - 2019, Jelsoft Enterprises Ltd.
Copyright © 1999 - 2018 Digital Digest

Visit DivXLand   Visit dvdloc8.com