Digital Video Forums  

Go Back   Digital Video Forums > Disc Formats > DVD Authoring and Editing

Reply
 
LinkBack Thread Tools Search this Thread Rate Thread Display Modes
Old 15 Aug 2011, 04:08 AM   #1
Junior Member
Junior Member
 
Join Date: May 2007
Posts: 2
Default please help! error when creating a dvd using dvd flick from .avi files

I am trying to create a few dvds from some video we shot (in .avi format) using dvd flick (latest version)... Its a bunch of multiple .avi files, no subtitles, just a title (play) menu -- basic stuff I would have thought -- they run just fine on all my computers -- there doesn't seem to be any errors in the files themselves... I have all the settings right (I think) in dvd flick -- but I get an error about 1/2 minute into creating the dvd... What is wrong? I am posting both error logs sorry if this more than what's needed... thanks in advance I have been monkeying with this for about a week now and am about ready to throw the whole mess out the window lol...

C:\Program Files\DVD Flick\bin\ffmpeg.exe -i "F:\UDT\Bill Monroe (l) and Bill Stubbs (r).avi" -vcodec mpeg2video -s 720x424 -padtop 28 -padbottom 28 -r 29.97 -g 14 -bufsize 1835008 -packetsize 2048 -muxrate 10080000 -aspect 4:3 -minrate 2304k -maxrate 2304k -b 2304k -preme 1 -precmp 2 -subcmp 8 -mbcmp 8 -cmp 1 -sws_flags lanczos+accurate_rnd -mbd 2 -sc_threshold -3000 -dc 8 -an -threads 2 -fflags +genpts -f mpeg2video -shortest -map 0:0 "F:\UDT\TEMP\0.0.m2v"
ffmpeg version N-31774-g6c4e9ca, Copyright (c) 2000-2011 the FFmpeg developers
built on Aug 6 2011 22:22:11 with gcc 4.6.1
configuration: --enable-gpl --enable-version3 --enable-memalign-hack --enable-runtime-cpudetect --enable-avisynth --enable-bzlib --enable-frei0r --enable-libopencore-amrnb --enable-libopencore-amrwb --enable-libfreetype --enable-libgsm --enable-libmp3lame --enable-libopenjpeg --enable-librtmp --enable-libschroedinger --enable-libspeex --enable-libtheora --enable-libvorbis --enable-libvpx --enable-libx264 --enable-libxavs --enable-libxvid --enable-zlib
libavutil 51. 11. 1 / 51. 11. 1
libavcodec 53. 9. 1 / 53. 9. 1
libavformat 53. 6. 0 / 53. 6. 0
libavdevice 53. 2. 0 / 53. 2. 0
libavfilter 2. 28. 0 / 2. 28. 0
libswscale 2. 0. 0 / 2. 0. 0
libpostproc 51. 2. 0 / 51. 2. 0
[avi @ 01EAB8E0] ODML index invalid
Last message repeated 1 times
Input #0, avi, from 'F:\UDT\Bill Monroe (l) and Bill Stubbs (r).avi':
Duration: 00:15:30.93, start: 0.000000, bitrate: 30319 kb/s
Stream #0.0: Video: dvvideo, yuv411p, 720x480 [SAR 8:9 DAR 4:3], 29.97 tbr, 29.97 tbn, 29.97 tbc
Stream #0.1: Audio: pcm_s16le, 48000 Hz, 2 channels, s16, 1536 kb/s
Option 'padtop' has been removed, use the pad filter instead
: failed to set value '28' for option 'padtop'

AND

AN ERROR OCCURRED IN THE ENCODING PROCESS
-1 FROM ENCODEVIDEO: FILE WAS NOT ENCODED

Code:
  DVD Flick error log
  Version 1.3.0.7 build 738
  Windows 5.1 build 2600 Service Pack 3
  *** Project info
  EncodeProf 2
  Threads 2
  OverScan 0, 3
  TargetRate 0
  TargetFormat 1
  TargetSize 4
  CreateISO 1
  CustRate 0
  EnableBurn 0
  EraseRW 1
  HalfRes 0
  LoopPlayb 1
  AutoPlayMenu 1
  MenuTemplt Plasma Sphere
  VolumeMod 100
  WhenPlayed 0
  *** Warnings given
  
  *** Titles
  0 - Bill Monroe (l) and Bill Stubbs (r)
      ChaptCount -1
      ChaptInt -1
      ChaptSource 0
      TargetAR 0
      ThumbIndex 93
  1 - Bill Stubbs 1
      ChaptCount -1
      ChaptInt -1
      ChaptSource 0
      TargetAR 0
      ThumbIndex 50
  2 - Bill Stubbs 2
      ChaptCount -1
      ChaptInt -1
      ChaptSource 0
      TargetAR 0
      ThumbIndex 112
  3 - Bill Towers
      ChaptCount -1
      ChaptInt -1
      ChaptSource 0
      TargetAR 0
      ThumbIndex 131
  4 - Bob Wood
      ChaptCount -1
      ChaptInt -1
      ChaptSource 0
      TargetAR 0
      ThumbIndex 138
  *** Project sources
      F:\UDT\Bill Stubbs 2.avi
      Stream 0 (2)
          Dur 1123.22
          StartT 0
          Compr dvvideo
          BitR 0
          720x480 29.97 FPS
          PAR 1
          SAR 1.5
      Stream 1 (1)
          Dur 1123.22
          StartT 0
          Compr pcm_s16le
          BitR 1536
          Chnnls 2
          SRate 48000
          Delay -160
      F:\UDT\Bill Monroe (l) and Bill Stubbs (r).avi
      Stream 0 (2)
          Dur 930.93
          StartT 0
          Compr dvvideo
          BitR 0
          720x480 29.97 FPS
          PAR 1
          SAR 1.5
      Stream 1 (1)
          Dur 930.93
          StartT 0
          Compr pcm_s16le
          BitR 1536
          Chnnls 2
          SRate 48000
          Delay -160
      F:\UDT\Bill Stubbs 1.avi
      Stream 0 (2)
          Dur 495.96
          StartT 0
          Compr dvvideo
          BitR 0
          720x480 29.97 FPS
          PAR 1
          SAR 1.5
      Stream 1 (1)
          Dur 495.96
          StartT 0
          Compr pcm_s16le
          BitR 1536
          Chnnls 2
          SRate 48000
          Delay -160
      F:\UDT\Bob Wood.avi
      Stream 0 (2)
          Dur 1384.11
          StartT 0
          Compr dvvideo
          BitR 0
          720x480 29.97 FPS
          PAR 1
          SAR 1.5
      Stream 1 (1)
          Dur 1384.11
          StartT 0
          Compr pcm_s16le
          BitR 1536
          Chnnls 2
          SRate 48000
          Delay -160
 *** dvdflick.log
  9:31:57 AM: DVD Flick 1.3.0.7 build 738
  9:31:57 AM: Calculating stream sizes...
  9:31:57 AM:     Disc space used : 4492315 KB
  9:31:57 AM:     Average bitrate : 2354 Kbit/s
  9:31:57 AM:     Total duration  : 3:57:07 hours
  9:31:57 AM: 13 title(s).
  9:31:57 AM: Using Normal encoding profile.
  9:31:57 AM: NTSC target format.
  9:31:57 AM: CPU: AMD Athlon(tm) 64 X2 Dual Core Processor 5000+                                                                                                                                                                                                                 
  9:31:57 AM: Threadcount: 2
  9:31:57 AM: Encoding video...
  9:31:57 AM:     Title 0, source 0
  9:31:57 AM:         Source         : F:\UDT\Bill Monroe (l) and Bill Stubbs (r).avi
  9:31:57 AM:         Properties     : 720x480, 1.5:1, 29.97 FPS, dvvideo, 930.93 seconds
  9:31:57 AM:         Target BitRate : 2354 Kbit\s
  9:31:57 AM:         Re-encoding
  9:31:57 AM:          -i "F:\UDT\Bill Monroe (l) and Bill Stubbs (r).avi" -vcodec mpeg2video -s 720x424 -padtop 28 -padbottom 28 -r 29.97 -g 14 -bufsize 1835008 -packetsize 2048 -muxrate 10080000 -aspect 4:3 -minrate 2304k -maxrate 2304k -b 2304k -preme 1 -precmp 2 -subcmp 8 -mbcmp 8 -cmp 1 -sws_flags lanczos+accurate_rnd -mbd 2 -sc_threshold -3000 -dc 8 -an -threads 2 -fflags +genpts -f mpeg2video -shortest -map 0:0 "F:\UDT\TEMP\0.0.m2v"
  9:31:57 AM: -1 from encodeVideo: File was not encoded.
  
  *** ffmpeg_video_title0_source0.txt
  st message repeated 1 times
  Input #0, avi, from 'F:\UDT\Bill Monroe (l) and Bill Stubbs (r).avi':
    Duration: 00:15:30.93, start: 0.000000, bitrate: 30319 kb/s
      Stream #0.0: Video: dvvideo, yuv411p, 720x480 [SAR 8:9 DAR 4:3], 29.97 tbr, 29.97 tbn, 29.97 tbc
      Stream #0.1: Audio: pcm_s16le, 48000 Hz, 2 channels, s16, 1536 kb/s
  Option 'padtop' has been removed, use the pad filter instead
  : failed to set value '28' for option 'padtop'
  
  *** Project destination folder
      dvdflick.log     1451
      errorlog.txt     0
      ffmpeg_video_title0_source0.txt      1808
  *** Drives
  A - not ready
      C - SEE - 2
      FS FAT32
      AvailSpace 143329
      FreeSpace 143329
      TotalSize 190733
  D - not ready
      E - MUSIC - 2
      FS NTFS
      AvailSpace 80851
      FreeSpace 80851
      TotalSize 152617
      F - ONE GIGER - 2
      FS NTFS
      AvailSpace 594486
      FreeSpace 594486
      TotalSize 953859
  G - not ready
      H - CLASSICAL MUSIC 2 - 2
      FS NTFS
      AvailSpace 17913
      FreeSpace 17913
      TotalSize 305235
      I - NEW AGE - MEDITATION MUSIC - 2
      FS NTFS
      AvailSpace 4619
      FreeSpace 4619
      TotalSize 305243
      J - 500 MB - 1
      FS FAT32
      AvailSpace 461
      FreeSpace 461
      TotalSize 489
marina_1234 is offline   Reply With Quote
Old 15 Aug 2011, 09:07 AM   #2
Eclectician
 
MilesAhead's Avatar
 
Join Date: Nov 2006
Posts: 2,615
Default

In AviDemux use Tools Menu, then Preferences, then Automation Tab. Check the one that says "Automatically Rebuild Index" and load your .avi in there, then save. Try it then. I notice in your error message it says "Index invalid"

Either that or it's because it's an UltraDivx File(menu) and DVD Flick hasn't been updated since UltraDivx. You can also convert to mpeg using AviDemux.

Go to AviDemux Wiki page for extensive documentation:

http://www.avidemux.org/admWiki/doku.php
MilesAhead is offline   Reply With Quote
Old 28 Aug 2011, 06:29 AM   #3
Junior Member
Junior Member
 
Join Date: May 2007
Posts: 2
Default

Thanks! Resolved the problem... Converted all .avis to .mpegs using format factory -- once I did that all my problems never came back... I guess .avi is a vexing format to try to use to burn dvds with. But thanks for the input you got me on the right track! LOL
marina_1234 is offline   Reply With Quote
Old 28 Aug 2011, 10:00 AM   #4
Eclectician
 
MilesAhead's Avatar
 
Join Date: Nov 2006
Posts: 2,615
Default

Quote:
Originally Posted by marina_1234 View Post
Thanks! Resolved the problem... Converted all .avis to .mpegs using format factory -- once I did that all my problems never came back... I guess .avi is a vexing format to try to use to burn dvds with. But thanks for the input you got me on the right track! LOL
Avi is touchy. If the first converter chokes on it I usually try a couple more before messing with the file. The AviDemux trick typically only takes a couple of minutes.
MilesAhead is offline   Reply With Quote
Reply

Bookmarks

Tags
dvd flick avi editing


Currently Active Users Viewing This Thread: 1 (0 members and 1 guests)
 
Thread Tools Search this Thread
Search this Thread:

Advanced Search
Display Modes Rate This Thread
Rate This Thread:

Posting Rules
You may not post new threads
You may not post replies
You may not post attachments
You may not edit your posts

BB code is On
Smilies are On
[IMG] code is On
HTML code is Off
Trackbacks are On
Pingbacks are On
Refbacks are Off


Similar Threads
Thread Thread Starter Forum Replies Last Post
please help....... dvd flick error BUBBAB0420 DVD Flick 1 8 Oct 2010 03:09 AM
Error 429 DVD Flick rkiernan22 DVD Flick 4 7 Apr 2009 05:09 AM
DVD Flick creating .m2v output file -- not .vob file jonnyD DVD Flick 5 26 Jan 2009 12:00 PM
DVD Flick error randomquestions DVD Flick 1 19 Dec 2008 09:17 AM
DVD Flick: Join Two Mpeg-2 files Together? afterburner1 DVD Flick 2 17 Oct 2008 05:42 AM



All times are GMT +10. The time now is 08:00 AM.

Kirsch designed by Andrew & Austin


Powered by vBulletin® Version 3.8.7
Copyright ©2000 - 2020, Jelsoft Enterprises Ltd.
Copyright © 1999 - 2018 Digital Digest

Visit DivXLand   Visit dvdloc8.com