Digital Video Forums  

Go Back   Digital Video Forums > Video File Formats > AVI, DivX/Xvid

Reply
 
LinkBack Thread Tools Search this Thread Rate Thread Display Modes
Old 12 Jan 2009, 06:26 AM   #1
New Member
New Member
 
Join Date: Jan 2009
Posts: 1
Default 3gp,3g2 Verizon phone video conversion nightmare

Nothing I have downloaded converts a 4 month old Verizon phone for beans...

HELP!!!


T>Avisynth DLL avaliable to use.
T>1126081236a.3g2 (General: 3GP2+AAC General Setting/QVGA Normal quality 15fps Mono)
E>"C:\Documents and Settings\Administrator\Desktop\3GP_Converter034\co res\ffmpeg" -y -i "E:\my_flix\1126081236a.3g2" -timestamp "2008-12-06 21:51:40" -bitexact -vcodec mpeg4 -fixaspect -s 320x240 -r 14.985 -b 190 -acodec aac -ac 1 -ar 16000 -ab 48 -f 3gp -muxvb 64 -muxab 32 "C:\DOCUME~1\ADMINI~1\LOCALS~1\Temp\0DD55674-4631ADDD-3A2C62BA-87238A36.3gp"
ffmpeg version CVS, build 4759, Copyright (c) 2000-2004 Fabrice Bellard
configuration: --enable-mp3lame --enable-faac --enable-faad --enable-amr_nb --enable-amr_wb --disable-ffplay --enable-small --enable-memalign-hack --enable-gpl --enable-xvid --enable-dts --enable-a52 --disable-vhook --enable-pthread --enable-x264
built on Dec 1 2005 17:25:10, gcc: 3.4.4 (cygming special) (gdc 0.12, using dmd 0.125)
Input #0, mov,mp4,m4a,3gp,3g2, from 'E:\my_flix\1126081236a.3g2':
Duration: 00:00:43.0, start: 0.000000, bitrate: 103 kb/s
Stream #0.0: Video: mpeg4, yuv420p, 176x144, 15.00 fps
Stream #0.1: Audio: aac, 64000 Hz, 9 channels
Resampling with input channels greater than 2 unsupported.Can't resample. Aborting.
Abort at ffmpeg.c:1789
E>"C:\Documents and Settings\Administrator\Desktop\3GP_Converter034\co res\QT3GPPFlatten" "C:\DOCUME~1\ADMINI~1\LOCALS~1\Temp\0DD55674-4631ADDD-3A2C62BA-87238A36.3gp" "C:\DOCUME~1\ADMINI~1\LOCALS~1\Temp\0DD55674-4631ADDD-3A2C62BA-87238A36_2.3g2" -c QT_3GPP2_QVGA_AAC.ini
QT3GPPFlatten for 3GP_Converter Version 0.08

SPAM LINK REMOVED

A>ConvertMovieToFile:NewMovieFromFile Error
A>Dialog : An error has occured during the process. [Error:-2048]
T>Finished.
A>Transcoding.ini updated
T>1126081236a.3g2 (General: 3GP2+AAC General Setting (w/o 3GPP2 headder)/QVGA Normal quality 15fps Mono)
E>"C:\Documents and Settings\Administrator\Desktop\3GP_Converter034\co res\ffmpeg" -y -i "E:\my_flix\1126081236a.3g2" -timestamp "2008-12-06 21:51:40" -bitexact -vcodec mpeg4 -fixaspect -s 320x240 -r 14.985 -b 190 -acodec aac -ac 1 -ar 16000 -ab 48 -f 3gp -muxvb 64 -muxab 32 "C:\DOCUME~1\ADMINI~1\LOCALS~1\Temp\3D46E076-ACCCAC7E-B96C97D4-F0838A3C.3gp"
ffmpeg version CVS, build 4759, Copyright (c) 2000-2004 Fabrice Bellard
configuration: --enable-mp3lame --enable-faac --enable-faad --enable-amr_nb --enable-amr_wb --disable-ffplay --enable-small --enable-memalign-hack --enable-gpl --enable-xvid --enable-dts --enable-a52 --disable-vhook --enable-pthread --enable-x264
built on Dec 1 2005 17:25:10, gcc: 3.4.4 (cygming special) (gdc 0.12, using dmd 0.125)
Input #0, mov,mp4,m4a,3gp,3g2, from 'E:\my_flix\1126081236a.3g2':
Duration: 00:00:43.0, start: 0.000000, bitrate: 103 kb/s
Stream #0.0: Video: mpeg4, yuv420p, 176x144, 15.00 fps
Stream #0.1: Audio: aac, 64000 Hz, 9 channels
Resampling with input channels greater than 2 unsupported.Can't resample. Aborting.
Abort at ffmpeg.c:1789
E>"C:\Documents and Settings\Administrator\Desktop\3GP_Converter034\co res\QT3GPPFlatten" "C:\DOCUME~1\ADMINI~1\LOCALS~1\Temp\3D46E076-ACCCAC7E-B96C97D4-F0838A3C.3gp" "C:\Documents and Settings\Administrator\Desktop\1126081236a.3g2" -c QT_3GPP(MobileMP4)_QVGA_AAC.ini
QT3GPPFlatten for 3GP_Converter Version 0.08

SPAM LINK REMOVED

A>ConvertMovieToFile:NewMovieFromFile Error
A>Dialog : An error has occured during the process. [Error:-2048]
T>Finished.

Last edited by blutach; 12 Jan 2009 at 10:15 AM
petehelfrich200 is offline   Reply With Quote
Old 12 Jan 2009, 10:17 AM   #2
Not a god of digital video
 
blutach's Avatar
 
Join Date: Oct 2004
Location: is everything!
Posts: 24,627
Default



1. Do not cross post (see rule 11). Also, unless you want to be spammed to hell, do not include your email address.
2. The logs you posted contained links to a warez/spam site - this is outside forum rules
3. What exactly are you trying to convert? What format to what? In any event, download SUPER and try.

Regards
__________________
Les

Essential progs - [PgcEdit] [VobBlanker] [MenuShrink] [IfoEdit] [Muxman] [DVD Remake Pro] [DVD Rebuilder] [BeSweet] [Media Player Classic] [DVDSubEdit] [ImgBurn]

Media and Burning - [Golden Rules of Burning] [Media quality] [Fix your DMA] [Update your Firmware] [What's my Media ID Code?] [How to test your disc]
[What's bitsetting?] [Burn dual layer disks safely] [Why not to burn with Ner0] [Interpret Ner0's burn errors] [Got bad playback?] [Burner/Media compatibility]

Cool Techniques - [2COOL's guides] [Clean your DVD] [Join a flipper] [Split into 2 DVDs] [Save heaps of Mb] [How to mock strip] [Cool Insert Clips]

Real useful info - [FAQ INDEX] [Compression explained] [Logical Remapping of Enabled Streams] [DVD-Replica] [Fantastic info on DVDs]


You should only use genuine Verbatim or Taiyo Yuden media. Many thanks to www.pcx.com.au for their supply and great service.

Explore the sites and the programs - there's a gold mine of information in them

Don't forget to play the Digital Digest Quiz!!! (Click here)


Last edited by blutach; 12 Jan 2009 at 10:19 AM
blutach is offline   Reply With Quote
Reply

Bookmarks

Tags
3g2, 3gp


Currently Active Users Viewing This Thread: 1 (0 members and 1 guests)
 
Thread Tools Search this Thread
Search this Thread:

Advanced Search
Display Modes Rate This Thread
Rate This Thread:

Posting Rules
You may not post new threads
You may not post replies
You may not post attachments
You may not edit your posts

BB code is On
Smilies are On
[IMG] code is On
HTML code is Off
Trackbacks are On
Pingbacks are On
Refbacks are Off


Similar Threads
Thread Thread Starter Forum Replies Last Post
cell phone video teddrick Other File Formats 1 1 Nov 2007 06:43 PM
short video capture by phone ? NightTran General Discussions 1 30 Oct 2007 06:04 PM
audio/video sync nightmare Vaughn AVI, DivX/Xvid 1 30 Jun 2002 08:48 AM



All times are GMT +10. The time now is 08:20 PM.

Kirsch designed by Andrew & Austin


Powered by vBulletin® Version 3.8.7
Copyright ©2000 - 2020, Jelsoft Enterprises Ltd.
Copyright © 1999 - 2018 Digital Digest

Visit DivXLand   Visit dvdloc8.com